[Login] or [Signup]
Login
Username:
Password:
[Signup]
[Recover Account]


Poll


You must be logged in to view polls



Torrent Details For "Dekh Kemon Lage (2017) Bengali Movie - 2CD - HDTV Rip[Xvid - Mp3] "

Dekh Kemon Lage (2017) Bengali Movie - 2CD - HDTV Rip[Xvid - Mp3]

Download this torrent | Magnet Download
Health:
Seeds: 0
Leechers: 36
Completed: 265 
Last Checked: 19-09-2017 23:39:09
External Torrent
Update Stats
Download Magnet


Poster


iMDB
Imdb Picture Title: Dekh Kemon Lage
Year: 2017
Runtime: 130 minutes
Language: Bengali
Country: India
All Genres: Comedy
Plot Outline: Rahul Roy returns to his city of joy Kolkata after 6 long years from USA. He has turned out to be one of the well known flirtatious guys.Gunja is his childhood friend who has always saved ...
Director: Abhijit Guha
Writing By: Padmanabha Dasgupta,
Music: Jeet Gannguli
Plot:

Rahul Roy returns to his city of joy Kolkata after 6 long years from USA. He has turned out to be one of the well known flirtatious guys.Gunja is his childhood friend who has always saved him from all his mischievousness. Gunja being a simple middle class innocent girl always helps him out of her love for him which she fails to express.In such a situation Rahul falls in a very difficult yet funny situation and is unable to come out of it. Gunja too denies to help him this time.

- Written by Srijoni Roy
Cast:
Mir Afsar Ali as Uday
Soham Chakraborty as Rahul Roy
Subhasree Ganguly as Gunja Sen


Watch-Free-HD     Download

Details
Name:Dekh Kemon Lage (2017) Bengali Movie - 2CD - HDTV Rip[Xvid - Mp3]
Description:
  Dekh Kemon Lage (2017) Bengali Movie -
2CD - HDTV Rip[Xvid - Mp3]  
 





General
Format                                   : AVI
Format/Info                              : Audio Video Interleave
File size                                : 1.40 GiB
Duration                                 : 2 h 18 min

Video
ID                                       : 0
Format                                   : MPEG-4 Visual
Format profile                           : Advanced [email protected]
Format settings, BVOP                    : 1
Format settings, QPel                    : No
Format settings, GMC                     : No warppoints
Format settings, Matrix                  : Default (H.263)
Codec ID                                 : XVID
Duration                                 : 2 h 18 min
Bit rate                                 : 1 311 kb/s
Width                                    : 640 pixels
Height                                   : 272 pixels
Display aspect ratio                     : 2.35:1
Frame rate                               : 29.970 (30000/1001) FPS
Color space                              : YUV
Chroma subsampling                       : 4:2:0
Bit depth                                : 8 bits
Scan type                                : Progressive
Compression mode                         : Lossy
Bits/(Pixel*Frame)                       : 0.251
Stream size                              : 1.27 GiB (91%)

Audio
ID                                       : 1
Format                                   : MPEG Audio
Format version                           : Version 1
Format profile                           : Layer 3
Mode                                     : Joint stereo
Mode extension                           : MS Stereo
Codec ID                                 : 55
Codec ID/Hint                            : MP3
Duration                                 : 2 h 18 min
Bit rate mode                            : Constant
Bit rate                                 : 128 kb/s
Channel(s)                               : 2 channels
Sampling rate                            : 48.0 kHz
Compression mode                         : Lossy
Stream size                              : 127 MiB (9%)

Thumbnail





Category:Movies > Bengali
Lang:Bengali  Bengali
Total Size:1.40 GB
Info Hash:35712c2e84156525da13ccedbb331a8fa909c6b8
Added By:Pherarim
Date Added:23-08-2017 03:59:25
Views:299
Hits:90

Download Torrent

Ratings:Not Yet Rated (Log in to rate it)


Tracker:
udp://9.rarbg.me:2710/announce


File List: 


Comments

No comments still posted

Powered by 10 Hamsters v2-svn -|- Page Generated In 0.818813 secs.
-|- RSS FEED
Theme By: Nikkbu