[Login] or [Signup]
Login
Username:
Password:
[Signup]
[Recover Account]


Poll


You must be logged in to view polls



Torrent Details For "One (2017) Bengali Movie - 2CD - HD Rip[Xvid - Mp3]"

One (2017) Bengali Movie - 2CD - HD Rip[Xvid - Mp3]

Download this torrent | Magnet Download
Health:
Seeds: 0
Leechers: 13
Completed:
Last Checked: 20-09-2017 13:29:36
External Torrent
Update Stats
Download Magnet


Poster


iMDB
Imdb Picture Title: One
Year: 2017
Runtime: 148 minutes
Votes: 13
Rating: 8.4/10
Language: Bengali
Country: India
All Genres: Thriller
Plot Outline: Story of an honest police officer Ronojoy Bose (Yash Dasgupta) in his crusade to cleanse society of corruption, and thus begins the cat & mouse chase and mind game between Ronojoy and the ...
Director: Birsa Dasgupta
Writing By: Abhimanyu Mukherjee,
Plot:

Story of an honest police officer Ronojoy Bose (Yash Dasgupta) in his crusade to cleanse society of corruption, and thus begins the cat & mouse chase and mind game between Ronojoy and the corrupt Award winning Scientist - Aditya Sen (Prosenjit Chatterji) How they play the game of upmanship. Will good triumph over evil in the end?

- Written by padmashri
Cast:
Prasenjit Chatterjee as Aditya
Yash Dasgupta as Ronojoy
Nusrat Jahan as Megha


Watch-Free-HD     Download

Details
Name:One (2017) Bengali Movie - 2CD - HD Rip[Xvid - Mp3]
Description:
One (2017) Bengali Movie - 2CD -
HD Rip[Xvid - Mp3]
 





General
Format                                   : AVI
Format/Info                              : Audio Video Interleave
File size                                : 1.40 GiB
Duration                                 : 2 h 55 min

Video
ID                                       : 0
Format                                   : MPEG-4 Visual
Format profile                           : Advanced [email protected]
Format settings, BVOP                    : 1
Format settings, QPel                    : No
Format settings, GMC                     : No warppoints
Format settings, Matrix                  : Default (H.263)
Codec ID                                 : XVID
Duration                                 : 2 h 55 min
Bit rate                                 : 1 005 kb/s
Width                                    : 720 pixels
Height                                   : 304 pixels
Display aspect ratio                     : 2.35:1
Frame rate                               : 25.000 FPS
Color space                              : YUV
Chroma subsampling                       : 4:2:0
Bit depth                                : 8 bits
Scan type                                : Progressive
Compression mode                         : Lossy
Bits/(Pixel*Frame)                       : 0.184
Stream size                              : 1.23 GiB (88%)

Audio
ID                                       : 1
Format                                   : MPEG Audio
Format version                           : Version 1
Format profile                           : Layer 3
Mode                                     : Joint stereo
Mode extension                           : MS Stereo
Codec ID                                 : 55
Codec ID/Hint                            : MP3
Duration                                 : 2 h 55 min
Bit rate mode                            : Constant
Bit rate                                 : 128 kb/s
Channel(s)                               : 2 channels
Sampling rate                            : 48.0 kHz
Compression mode                         : Lossy
Stream size                              : 161 MiB (11%)

Thumbnail




Category:Movies > Bengali
Lang:Bengali  Bengali
Total Size:1.40 GB
Info Hash:14be56f75351eaeb0ac4ef17da30dd9b2618573c
Added By:Pherarim
Date Added:07-08-2017 23:34:39
Views:341
Hits:104

Download Torrent

Ratings:Not Yet Rated (Log in to rate it)


Tracker:
udp://9.rarbg.me:2710/announce


File List: 


Comments

No comments still posted

Powered by 10 Hamsters v2-svn -|- Page Generated In 0.558038 secs.
-|- RSS FEED
Theme By: Nikkbu